<?xml version="1.0" standalone="no"?>
<!DOCTYPE svg PUBLIC "-//W3C//DTD SVG 1.1//EN" "http://www.w3.org/Graphics/SVG/1.1/DTD/svg11.dtd" >
<!--
2013-9-30: Created.
-->
<svg>
<metadata>
Created by iconfont
</metadata>
<defs>

<font id="iconfont" horiz-adv-x="1024" >
  <font-face
    font-family="iconfont"
    font-weight="500"
    font-stretch="normal"
    units-per-em="1024"
    ascent="896"
    descent="-128"
  />
    <missing-glyph />
    
    <glyph glyph-name="jian" unicode="&#58928;" d="M924.672 558.08c-22.528 53.248-54.784 101.376-95.744 142.336S739.84 774.144 686.08 796.672c-55.296 23.552-113.664 35.328-174.08 35.328s-119.296-11.776-174.08-35.328c-53.248-22.528-101.376-54.784-142.336-95.744S121.856 611.84 99.328 558.08c-23.552-55.296-35.328-113.664-35.328-174.08s11.776-119.296 35.328-174.08c22.528-53.248 54.784-101.376 95.744-142.336s89.088-73.216 142.336-95.744c55.296-23.552 113.664-35.328 174.08-35.328s119.296 11.776 174.08 35.328c53.248 22.528 101.376 54.784 142.336 95.744s73.216 89.088 95.744 142.336c23.552 55.296 35.328 113.664 35.328 174.08s-11.264 119.296-34.304 174.08zM512 0c-211.968 0-384 172.544-384 384s172.544 384 384 384 384-172.544 384-384-172.032-384-384-384zM768 384c0 17.92-12.288 31.744-28.16 31.744h-455.68c-15.36 0-28.16-14.336-28.16-31.744 0-17.92 12.288-31.744 28.16-31.744h456.192c15.36 0 27.648 13.824 27.648 31.744z"  horiz-adv-x="1024" />

    
    <glyph glyph-name="add-sy" unicode="&#58885;" d="M512.277-58.412000000000035c-118.89 0-230.659 46.078-314.73 129.73S67.12 266.33399999999995 67.12 384.778s46.327 229.744 130.398 313.427 195.82 129.73 314.73 129.73 230.659-46.078 314.72-129.73S957.397 503.19 957.397 384.817 911.078 155.03999999999996 826.97 71.35799999999995s-195.8-129.77-314.692-129.77z m0 822.784c-101.972 0-197.809-39.494-269.865-111.222s-111.7-166.997-111.7-268.373 39.653-196.695 111.67-268.335S410.246 5.220000000000027 512.248 5.220000000000027s197.809 39.484 269.865 111.222 111.7 166.998 111.67 268.374c-0.03 101.375-39.654 196.665-111.67 268.303S614.22 764.3720000000001 512.277 764.3720000000001z m222.585-347.8H544.073V607.36c-0.76 17.561-15.613 31.18-33.173 30.419-16.495-0.714-29.704-13.924-30.419-30.419v-190.787H289.703c-17.56-0.761-31.179-15.614-30.419-33.174 0.715-16.494 13.924-29.703 30.42-30.418H480.48v-190.788c0.761-17.56 15.614-31.179 33.174-30.419 16.494 0.715 29.703 13.925 30.418 30.42V352.98h190.788c17.56-0.762 32.413 12.857 33.173 30.418 0.762 17.561-12.858 32.414-30.419 33.174a31.683 31.683 0 0 1-2.753 0z"  horiz-adv-x="1028" />

    
    <glyph glyph-name="weibo" unicode="&#58933;" d="M824.42 427.08c-1.26 0-2.52 0.06-3.78 0.42-8.94 1.98-14.64 10.92-12.66 19.98 10.5 46.62 6.18 79.68-12.72 98.22-31.26 30.72-94.62 15.9-95.22 15.72-9.06-2.22-18.12 3.36-20.22 12.3-2.16 9 3.24 18 12.3 20.22 3.36 0.84 81.96 19.44 126.48-24.24 27.72-27.24 35.16-70.74 21.96-129.48C838.94 432.36 832.04 427.08 824.42 427.08zM933.44 381.29999999999995c-1.26 0-2.4 0.12-3.72 0.3-12.12 2.04-20.34 13.56-18.36 25.62 18.78 113.52 3.6 193.02-45.18 236.46-75.24 66.84-209.64 28.86-211.02 28.5-11.76-3.42-24.12 3.42-27.6 15.18C624.2 699.12 630.98 711.48 642.86 715.02c6.36 1.92 159 45.3 252.9-37.86 61.14-54.24 81.24-147.48 59.7-277.14C953.6 389.04 944.18 381.29999999999995 933.44 381.29999999999995zM729.98 381.29999999999995c0 0 92.52 220.14-216 110.46 9.78 115.68-40.44 185.88-191.04 100.38 0 0-489.3-331.74-132.42-543.66 0 0 448.8-185.4 652.44 158.94C883.34 331.44000000000005 763.46 383.15999999999997 729.98 381.29999999999995zM440.42 48.89999999999998c-148.44-16.98-277.98 49.02-289.26 147.6S251 388.74 399.44 405.72c148.5 17.1 278.04-48.96 289.32-147.48C700.1 159.72000000000003 588.86 65.94000000000005 440.42 48.89999999999998zM547.76 226.14C541.64 293.58000000000004 471.8 342.41999999999996 391.82 335.15999999999997c-79.98-7.26-139.86-67.74-133.74-135.24 6.12-67.5 75.9-116.34 155.88-109.02C494 98.10000000000002 553.82 158.70000000000005 547.76 226.14zM358.04 140.51999999999998c-24.72 0-44.82 18.72-44.82 41.76 0 23.04 20.1 41.82 44.82 41.82 24.84 0 44.88-18.78 44.88-41.82C402.92 159.24 382.82 140.51999999999998 358.04 140.51999999999998zM435.56 210.89999999999998c-11.1 0-20.1 8.94-20.1 20.04 0 11.16 9 20.16 20.1 20.16s20.1-9 20.1-20.16C455.72 219.89999999999998 446.66 210.89999999999998 435.56 210.89999999999998z"  horiz-adv-x="1024" />

    
    <glyph glyph-name="qq" unicode="&#58951;" d="M855.91242781 405.039495c-27.88445437 44.06196562-39.96842156 91.50659812-47.20383562 141.72758906C782.39171469 729.42819938 602.32276156 847.46752875 427.95810031 793.40530312c-115.13921531-35.69931563-185.25615656-116.00167125-208.58178187-234.83917874-10.89725156-55.51659937-21.31962563-109.68723187-53.33407969-159.17815688-32.3118525-49.94949469-41.0064375-108.60220781-36.792015-168.09435188 2.43578813-34.37253562 12.92915437-65.67611156 38.43346219-91.15547624 7.67191875-7.66328437 15.27380438-20.31902344 14.86416187-30.36149532C179.5997675 37.37357250000002 222.40594437-0.8948812500000258 283.04739031-22.031270629999995c67.17557531-23.41388531 135.907215-22.38546281 202.29708282 5.54408157 18.09237375 7.61339812 32.63515313 10.36673156 51.63123374 1.14546375 54.60425813-26.50586906 113.31261375-26.924145 171.28994532-16.38377157 92.53502156 16.82219438 133.23542625 66.60092438 133.53954 158.98436907 28.99058438 20.98960875 47.15394937 50.42533125 51.33575437 87.25955812C900.78696219 281.83694625 892.47323937 347.26842375 855.91242781 405.039495zM818.37403812 247.32242718999998c-0.51421125-17.06586937-7.41960938-33.93890906-14.12066625-62.49394875-23.65660125 20.03697469-37.01938125 31.35538125-51.27435562 43.429755-16.49889375-25.29612938-32.19577125-49.36045406-49.24725-75.50368875 10.31108906-5.65632469 22.42767375-9.53881313 30.6310725-17.47167375 11.4153-11.03731688 25.52829187-24.004845 28.30081219-38.14277906 4.01200031-20.46292594-14.55237375-32.38476281-31.76406375-40.08546188-54.64838813-24.45094219-111.40830562-27.18700687-164.55819-0.42307312-37.99408031 19.13230875-69.24105469 20.41591781-107.24089032 0.41347968-49.78832344-26.20367438-103.65292313-23.14334906-156.36438468-4.60967437-5.74362562 2.01943125-11.31360938 4.89460125-16.47395063 8.14871531-34.53370594 21.77147906-35.43357563 49.42377094-1.8918375 71.79004594 11.22534938 7.48580437 23.77076344 12.99055219 36.36414469 19.75108875-16.58715375 26.19983625-32.02116937 50.58074625-48.67739719 76.8909075-13.97196656-11.92279594-27.97463344-23.87245406-42.66803062-36.41115281-26.52889312 20.38521844-25.19539781 45.71492531-23.75349469 69.38399718 3.0420975 49.934145 16.39816219 96.87895594 50.57211187 135.29131219 12.810195 14.39887781 17.2011375 29.77917 19.70216157 49.12349438 5.44622719 42.12791719 13.83957656 84.3028425 25.73743031 125.08479281 28.77377156 98.64032156 121.80477656 163.29952313 222.60171562 157.83698625 99.11711812-5.37043875 183.1743675-77.41567219 203.97402563-176.20661156 8.75886188-41.60123438 14.12450344-83.92965563 23.35536469-125.41097157 2.75908969-12.39863344 12.42645469-23.78419406 20.57325093-34.36677937C805.37677063 350.18005030999996 819.98862406 300.99132 818.37403812 247.32242718999998z"  horiz-adv-x="1024" />

    
    <glyph glyph-name="shoujihao" unicode="&#58914;" d="M717.77721458 833.46627698L325.60979058 833.46627698c-58.99987627 0-106.83824355-46.11404231-106.83824356-102.99346489l0-632.87387022c0-56.87942258 47.83836729-102.99346489 106.83824356-102.99346489l392.14412231 0c58.99987627 0 106.83824355 46.11404231 106.83824356 102.99346489l0 632.87387022C824.61545813 787.35223467 776.77709085 833.46627698 717.77721458 833.46627698zM785.74824107 97.62224355000001c0-36.18752285-30.43200569-65.54765085-67.99432818-65.54765084L325.65639395 32.07459271000005c-37.56232249 0-67.99432818 29.33682631-67.99432817 65.54765084l0 41.1274809 528.08617529 0L785.74824107 97.62224355000001zM785.74824107 175.24016925L257.63876409 175.24016925l0 496.7920071 528.08617529 0L785.72493938 175.24016925zM785.74824107 709.50129209L257.66206578 709.50129209l0 20.94821831c0 36.18752285 30.43200569 65.54765085 67.99432817 65.54765085L717.75391289 795.99716125c37.56232249 0 67.99432818-29.33682631 67.99432818-65.54765085L785.74824107 709.50129209zM523.13820729 58.35889778000001c16.28788053 0 29.52323982 12.76932551 29.52323982 28.45136213 0 15.68203662-13.23535929 28.45136213-29.52323982 28.45136214-16.26457885 0-29.52323982-12.76932551-29.52323982-28.45136214C493.61496747 71.12822329000005 506.87362845 58.35889778000001 523.13820729 58.35889778000001z"  horiz-adv-x="1024" />

    
    <glyph glyph-name="weixin" unicode="&#58900;" d="M816.68 82.97625000000005c-2.7778125 8.266875-5.19 15.4340625-5.19 29.375625 0 10.4953125 3.03 12.7021875 10.97625 18.4575 4.7934375 3.4734375 11.6671875 8.4646875 21.1396875 18.28125 26.84625 27.7921875 43.119375 46.6453125 52.588125 68.20125 9.4425 21.50625 12.26625 46.0846875 12.26625 85.41375 0 44.7946875-27.868125 89.2415625-70.2815625 122.47875-42.39375 33.2053125-99.2446875 55.16625-157.4428125 55.16625-61.3434375 0-111.095625-18.8653125-147.9665625-48.2278125-31.2075-24.8615625-53.23875-57.2690625-65.285625-92.1253125-12.04125-34.84125-14.1346875-72.1209375-5.5134375-106.7559375 9.045-36.34125 29.9315625-69.826875 63.5090625-94.558125 29.799375-21.95625 64.96875-38.3371875 102.3178125-46.7521875 35.0128125-7.8965625 71.979375-8.7975 108.2671875-0.744375 45.4621875 10.08375 49.7784375 5.900625 58.3884375-2.491875 4.30875-4.1953125 9.885-9.62625 25.0021875-14.514375-0.9196875 3.27375-1.8665625 6.10125-2.775 8.795625z m-597.20625 161.413125c-2.4215625-6.6675-4.85625-13.35375-6.0909375-23.0259375 10.419375 3.22125 19.6528125 8.6559375 28.7953125 14.0334375 18.0365625 10.621875 35.803125 21.0721875 62.4609375 15.7321875 21.2925-4.27125 36.988125-7.2365625 53.6184375-9.125625 15.5071875-1.7634375 31.9040625-2.595 54.534375-2.694375-5.7778125 14.7928125-7.854375 32.49-7.45125 50.5003125 0.538125 24.178125 5.5528125 49.06125 12.0009375 68.2621875 17.23125 51.208125 38.83125 71.1571875 71.3934375 101.22375l1.7971875 1.6621875c4.0171875 3.7040625 6.36 5.848125 8.8603125 7.8675l-0.00375 0.005625c2.3971875 1.944375 5.0071875 3.8109375 9.59625 7.0209375 22.614375 15.81 46.3153125 28.06125 72.2484375 36.3525 24.853125 7.94625 51.759375 12.27 81.6965625 12.6215625-4.250625 17.3671875-10.4259375 33.669375-18.226875 48.825-28.719375 55.84125-79.663125 96.39-138.984375 119.469375-59.450625 23.11875-127.2928125 28.71375-189.6909375 14.60625-23.135625-5.2284375-45.5184375-13.1765625-66.425625-23.9296875-44.983125-23.1375-79.0171875-53.011875-102.1190625-86.488125-22.155-32.0971875-34.29375-67.558125-36.4425-103.59375-2.145-36.045 5.683125-72.7321875 23.446875-107.2696875 18.9740625-36.898125 49.3078125-71.3840625 90.9-100.0884375l1.389375-0.9609375V283.6875c0.001875-19.1775-3.650625-29.2303125-7.303125-39.298125zM99.20375 354.9346875c-21.7809375 39.7284375-35.6428125 85.6659375-35.6428125 128.6325 0 34.933125 10.9921875 72.823125 28.49625 107.4965625 18.5146875 36.675 44.3784375 69.8559375 72.2625 92.2209375 63.894375 51.2690625 137.5190625 77.7309375 211.9584375 80.026875 75.403125 2.3315625 151.640625-20.11875 219.448125-66.6403125 29.139375-19.97625 51.485625-41.735625 69.1565625-66.5315625 17.6390625-24.7659375 30.6009375-52.5515625 40.978125-84.6328125 6.391875-19.7053125 8.3803125-19.9209375 20.265-21.18 4.3359375-0.459375 9.8278125-1.0471875 16.9725-2.4646875 24.26625-4.8225 48.6646875-12.9440625 71.3278125-23.960625 21.6928125-10.543125 41.836875-23.765625 58.8009375-39.33 11.911875-10.9303125 23.0175-21.763125 33.0740625-33.6290625 10.09125-11.9165625 19.055625-24.8034375 26.593125-39.7434375 19.1559375-37.97625 28.13625-73.035 26.784375-107.8340625-1.3509375-34.7915625-13.0453125-69.2165625-35.1965625-105.8971875-7.2740625-12.0375-19.4371875-27.1171875-32.5171875-41.08125-12.5746875-13.438125-26.05125-25.906875-36.883125-33.703125 4.153125-17.81625 8.7403125-30.345 12.376875-40.2721875 7.33125-20.0409375 11.026875-30.1275 0.7021875-50.2490625l-0.9646875-1.8815625-2.0465625 0.17625c-17.2396875 1.4803125-28.0096875 8.4225-39.8859375 16.0678125l-3.9309375 2.5190625v-0.0075a344.08875 344.08875 0 0 1-17.6934375 10.5065625c-5.6034375 3.114375-11.5640625 6.2559375-18.0909375 9.68625-15.9571875 8.38875-16.4259375 8.266875-29.8753125 4.5459375-2.9428125-0.8128125-6.4725-1.7934375-11.4-3.01875-29.9596875-7.4690625-41.5115625-7.3509375-65.6090625-7.095-4.3434375 0.0459375-9.1715625 0.0965625-16.4034375 0.0965625-48.38625 0-103.68375 21.1734375-148.9865625 52.30875-43.9471875 30.200625-78.643125 69.89625-88.7625 108.8971875-19.573125-4.3396875-39.5278125-5.3165625-59.25-4.2365625-20.64 1.12125-41.0428125 4.5178125-60.4921875 8.6521875-30.7303125 6.541875-55.29-9.4996875-78.733125-24.815625-15.2353125-9.9525-30.045-19.6246875-46.13625-23.1159375-13.9246875-3.0234375-20.5725 1.71375-22.62 11.1628125-3.0684375 14.1215625 6.1771875 39.5090625 14.866875 63.3665625 4.3771875 12.0140625 8.62125 23.6578125 10.985625 33.020625-32.0128125 18.2165625-62.0128125 51.9703125-83.92875 91.929375v0.0075z m349.8 179.8734375c-7.108125 8.1290625-11.8940625 19.471875-11.8940625 33.4940625 0 8.086875 5.915625 16.738125 14.1290625 23.323125 8.2134375 6.579375 18.8653125 11.2490625 28.1503125 11.2490625 21.9225 0 35.61375-10.329375 41.5978125-23.67 2.3775-5.2875 3.523125-11.071875 3.4771875-16.875v-0.0121875a42.6665625 42.6665625 0 0 0-3.66-16.9528125c-6.2353125-14.0390625-20.2865625-25.134375-41.415-25.134375-10.7090625 0-22.12875 5.1225-30.3853125 14.578125z m-201.01125-0.0065625c-7.1025 8.135625-11.8940625 19.4728125-11.8940625 33.4996875 0 8.086875 5.915625 16.738125 14.1346875 23.323125 8.206875 6.579375 18.8596875 11.2490625 28.1503125 11.2490625 21.6553125 0 35.143125-10.3003125 41.0428125-23.6296875 2.341875-5.293125 3.4715625-11.079375 3.425625-16.869375a43.23 43.23 0 0 0-3.6084375-16.9434375c-6.1584375-14.0653125-20.0446875-25.2009375-40.86-25.2009375-10.7090625 0-22.1334375 5.116875-30.3909375 14.5715625zM628.521875 300.43875c-4.92375-10.4990625-15.8840625-18.5446875-33.1959375-18.5446875-17.595 0-28.1625 8.053125-32.750625 18.571875l2.686875 1.2478125-2.686875-1.2365625c-1.8890625 4.3359375-2.7403125 9.0984375-2.6334375 13.8740625 0.106875 4.7465625 1.179375 9.5296875 3.095625 13.903125 5.068125 11.548125 16.11 20.65125 31.6846875 20.3953125 17.2884375-0.2746875 28.723125-9.3121875 33.7996875-20.6240625a34.1128125 34.1128125 0 0 0 2.985-13.861875c0.0103125-4.7259375-0.9778125-9.4425-2.985-13.725z m109.9884375-16.1784375c-11.0371875 4.445625-19.4034375 14.788125-19.4034375 32.210625 0 15.49875 8.270625 24.5709375 19.231875 28.4409375 4.408125 1.5496875 9.2746875 2.236875 14.19375 2.1328125a48.0740625 48.0740625 0 0 0 14.4234375-2.5490625c13.010625-4.4240625 23.581875-14.3775 23.581875-28.025625 0-15.613125-10.3509375-26.803125-23.1590625-31.8065625-4.6134375-1.798125-9.594375-2.80125-14.5171875-2.9053125-4.9584375-0.1003125-9.8859375 0.7040625-14.35125 2.5021875z"  horiz-adv-x="1024" />

    
    <glyph glyph-name="gerenxinxi" unicode="&#58883;" d="M762.92319071 568.2457530199999c-23.67983716 139.17097512-144.57163926 237.62924698-281.25000056 237.62924698-16.20199402 0-32.40398804-1.24630691-48.60598204-4.1543572-155.37296915-26.58788745-260.06277722-174.48301345-233.47488896-329.85598261 16.20199402-94.71935028 77.68648416-170.74409189 158.28101944-209.37961615-125.0461593-44.86706048-218.93463831-153.29579013-243.8607832-285.40435694-1.24630691-6.64697186 3.32348593-13.29394373 9.97045779-14.54025146 0.83087128 0 1.66174338-0.41543564 2.49261465-0.41543564 5.81610058 0 11.21676553 4.1543572 12.04763681 9.97045779 24.9261449 132.93943891 125.46159494 240.53729727 255.90841919 275.43389997 27.41875955-8.72415088 56.49926166-13.29394373 86.41063504-13.29394455 16.20199402 0 32.40398804 1.24630691 48.60598206 4.15435803 155.78840479 27.00332309 260.06277722 174.48301345 233.47488978 329.85598178z m-237.62924699-304.92983688c-14.54025146-2.49261465-29.49593774-3.73892156-44.45162485-3.7389224-26.58788745 0-52.76034008 4.1543572-78.10191979 12.04763682-1.66174338 1.24630691-4.1543572 2.07717901-6.23153622 2.07717901-29.91137338 10.38589343-57.74556858 25.75701618-82.67171347 46.52880304-46.9442395 39.46639553-78.93279189 94.71935028-89.31868533 155.78840479-12.04763681 68.96233411 3.73892156 137.92466738 44.0361892 194.83936551S368.67466766 765.57773237 437.22156613 777.20993353c14.54025146 2.49261465 29.49593774 3.73892156 44.45162402 3.73892157 60.65361887 0 120.06093082-21.60265897 167.00517032-60.65361887 47.35967514-39.46639553 79.34822753-95.13478592 89.73412098-156.20384042 24.51070926-141.66358896-71.0395123-276.68020688-213.11853773-300.77547967zM691.46824195 232.57367065000005c0-7.0624075 5.81610058-12.46307244 12.46307244-12.46307244h193.59305778c6.64697186 0 12.46307244 5.40066494 12.46307244 12.46307244s-5.81610058 12.46307244-12.46307245 12.46307245h-193.59305777c-6.64697186 0-12.46307244-5.81610058-12.46307244-12.46307245zM897.52437216 122.48319762999995H611.70457876c-7.0624075 0-12.46307244-5.40066494-12.46307244-12.46307244 0-6.64697186 5.40066494-12.46307244 12.46307244-12.46307163h285.8197934c6.64697186 0 12.46307244 5.81610058 12.46307245 12.46307163s-5.81610058 12.46307244-12.46307244 12.46307244zM897.52437216-0.0703470199999856H611.70457876c-7.0624075 0-12.46307244-5.40066494-12.46307244-12.46307244 0-6.64697186 5.40066494-12.46307244 12.46307244-12.46307246h285.8197934c6.64697186 0 12.46307244 5.81610058 12.46307245 12.46307246 0 7.0624075-5.81610058 12.46307244-12.46307244 12.46307244z"  horiz-adv-x="1024" />

    
    <glyph glyph-name="wujiaoxing" unicode="&#58973;" d="M932.40888889 482.53155555c-2.50311111 7.62311111-7.05422222 14.336-13.08444444 19.456-6.144 5.12-13.53955555 8.53333333-21.39022223 9.67111112l-240.07111111 34.92977778-107.29244444 217.88444444c-3.52711111 7.168-8.98844445 13.19822222-15.81511112 17.408s-14.56355555 6.48533333-22.64177777 6.48533333c-7.96444445 0-15.81511111-2.27555555-22.64177778-6.48533333-6.82666667-4.20977778-12.288-10.24-15.81511111-17.408L366.25066667 546.7022222200001l-240.07111112-34.92977777c-7.96444445-1.13777778-15.36-4.43733333-21.504-9.67111112-6.144-5.12-10.69511111-11.94666667-13.08444444-19.56977778-2.50311111-7.62311111-2.73066667-15.70133333-0.79644444-23.552s5.91644445-14.79111111 11.71911111-20.36622222l173.85244444-169.52888888-41.07377777-239.50222223c-1.36533333-7.85066667-0.45511111-15.92888889 2.5031111-23.32444444s8.07822222-13.76711111 14.44977778-18.54577778c6.48533333-4.66488889 14.10844445-7.50933333 22.07288889-8.07822222 7.96444445-0.56888889 15.92888889 1.13777778 22.98311111 4.77866667L512 97.62133332999997l214.81244445-113.09511111c7.05422222-3.75466667 15.01866667-5.34755555 22.9831111-4.77866667s15.58755555 3.41333333 22.0728889 8.07822223c6.48533333 4.66488889 11.49155555 11.15022222 14.44977777 18.54577777 2.95822222 7.39555555 3.86844445 15.47377778 2.50311111 23.32444445l-40.96 239.38844445L921.6 438.72711111c5.68888889 5.57511111 9.78488889 12.62933333 11.60533333 20.36622222 1.93422222 7.73688889 1.59288889 15.92888889-0.79644444 23.43822222zM671.97155555 314.70933333000005c-5.00622222-4.89244445-8.64711111-10.80888889-10.80888888-17.408-2.16177778-6.59911111-2.61688889-13.65333333-1.47911112-20.48L689.94844445 100.69333332999997l-157.92355556 83.17155556c-6.144 3.18577778-12.97066667 4.89244445-19.91111111 4.89244444s-13.76711111-1.70666667-19.91111111-4.89244444L334.27911111 100.69333332999997l30.15111111 176.128c1.13777778 6.82666667 0.68266667 13.88088889-1.47911111 20.48-2.16177778 6.59911111-5.91644445 12.62933333-10.80888889 17.408L224.256 439.52355555l176.58311111 25.71377778c6.82666667 1.024 13.312 3.64088889 19.00088889 7.73688889 5.57511111 4.096 10.12622222 9.44355555 13.19822222 15.70133333L512 648.7608888899999l78.96177778-160.31288889c3.072-6.25777778 7.62311111-11.60533333 13.19822222-15.70133333 5.57511111-4.096 12.06044445-6.71288889 19.00088889-7.73688889l176.58311111-25.71377778-127.77244445-124.58666667z"  horiz-adv-x="1024" />

    
    <glyph glyph-name="jianjie" unicode="&#58931;" d="M795.02539063-37.875H228.97460937C181.51367187-37.875 142.859375 1.4121093700000529 142.859375 49.6640625V718.3359375C142.859375 766.58789063 181.51367187 805.875 228.97460937 805.875h566.05078125C842.48632813 805.875 881.140625 766.58789063 881.140625 718.3359375v-668.671875c0-48.25195313-38.65429689-87.5390625-86.11523438-87.5390625zM828.40625001 700.40625001c0 20.72460938-32.37890625 52.734375-52.73437501 52.73437499H248.328125c-20.35546875 0-52.734375-32.0625-52.73437501-52.73437501v-632.8125c0-20.671875 32.37890625-52.734375 52.73437501-52.73437499h527.34375c20.35546875 0 52.734375 32.0625 52.73437501 52.73437499l3.53320312-17.92968749L828.40625001 700.40625001z m-421.87500002-421.87500002h316.40625001v-52.73437499H406.53124999v52.73437501z m2e-8 158.20312501h316.40624999v-52.734375H406.53124999V436.734375z m0 158.203125h316.40624999v-52.734375H406.53124999V594.9375z m-105.46875001-316.40625001h52.734375v-52.73437499H301.0625v52.73437501z m0 158.20312501h52.734375v-52.734375H301.0625V436.734375z m0 158.203125h52.734375v-52.734375H301.0625V594.9375z"  horiz-adv-x="1024" />

    
    <glyph glyph-name="icon095" unicode="&#58985;" d="M478.176 81.065c-3.515 0-7.075 0.902-10.343 2.799-9.887 5.691-13.275 18.348-7.569 28.267l214.972 372.417c5.721 9.89 18.363 13.31 28.282 7.556 9.89-5.691 13.278-18.345 7.572-28.268l-214.973-372.416c-3.841-6.623-10.79-10.355-17.942-10.355zM511.994-160.091c-247.066 0-448.077 201.011-448.077 448.077s201.011 448.106 448.077 448.106c247.078 0 448.089-201.040 448.089-448.106s-201.011-448.077-448.089-448.077zM511.994 694.673c-224.24 0-406.687-182.446-406.687-406.687s182.446-406.655 406.687-406.655c224.253 0 406.7 182.415 406.7 406.655s-182.446 406.687-406.7 406.687zM478.189 81.065c-4.991 0-9.996 1.805-13.976 5.442l-153.791 140.716c-8.429 7.713-9.002 20.803-1.289 29.229 7.709 8.489 20.803 9.050 29.244 1.309l153.791-140.716c8.428-7.713 9.002-20.803 1.289-29.232-4.072-4.478-9.67-6.748-15.268-6.748z"  horiz-adv-x="1024" />

    
    <glyph glyph-name="666" unicode="&#58889;" d="M191.870936 623.490489l351.760482 0c8.830109 0 15.989159 7.15905 15.989159 15.989159l0 15.986089c0 8.830109-7.15905 15.989159-15.989159 15.989159L191.870936 671.454898c-8.830109 0-15.989159-7.15905-15.989159-15.989159l0-15.986089C175.881776 630.64954 183.040826 623.490489 191.870936 623.490489zM191.870936 495.580285l351.760482 0c8.830109 0 15.989159 7.15905 15.989159 15.989159L559.620577 527.555533c0 8.830109-7.15905 15.989159-15.989159 15.989159L191.870936 543.544693c-8.830109 0-15.989159-7.15905-15.989159-15.989159l0-15.986089C175.881776 502.739335 183.040826 495.580285 191.870936 495.580285zM351.761506 415.629371 191.870936 415.629371c-8.830109 0-15.989159-7.15905-15.989159-15.989159l0-15.986089c0-8.830109 7.15905-15.989159 15.989159-15.989159l159.89057 0c8.830109 0 15.989159 7.15905 15.989159 15.989159l0 15.986089C367.750665 408.470321 360.591615 415.629371 351.761506 415.629371zM863.414605 175.794028 623.577215 175.794028c-8.830109 0-15.989159-7.15905-15.989159-15.989159l0-15.986089c0-8.830109 7.15905-15.989159 15.989159-15.989159l239.83739 0c8.830109 0 15.989159 7.15905 15.989159 15.989159l0 15.986089C879.403764 168.636001 872.244714 175.794028 863.414605 175.794028zM975.33872 308.344926 975.33872 783.382083c0 44.13008-35.815717 79.945797-79.945797 79.945797L657.491629 863.32788l-0.968048 0.968048-0.968048-0.968048-575.609737 0c-44.13008 0-79.945797-35.815717-79.945797-79.945797l0-735.50133c0-44.13008 35.815717-79.945797 79.945797-79.945797l452.812993 0c51.325969-58.840106 126.634142-95.934956 210.736609-95.934956 154.454768 0 279.8108 125.355009 279.8108 279.8108C1023.306198 209.851705 1005.557976 263.574257 975.33872 308.344926zM895.392924 815.360402c17.587564 0 31.978319-14.389732 31.978319-31.978319l0-189.933817L705.459107 815.360402 895.392924 815.360402zM79.945797 15.902434c-17.587564 0-31.978319 14.390755-31.978319 31.978319L47.967478 783.382083c0 17.588587 14.390755 31.978319 31.978319 31.978319l557.684482 0 288.772916-288.772916 0.968048 0.968048 0-165.008124c-49.246611 43.010583-113.52252 69.073168-183.875844 69.073168-154.454768 0-279.8108-125.353986-279.8108-279.8108 0-36.774555 7.03523-71.79107 20.146852-103.930047 4.317329-11.032264 9.432837-21.745257 15.189957-31.978319L79.945797 15.901411zM974.699154 136.141936c-3.197832-49.726541-22.225187-95.135754-51.964512-131.431402-42.691311-51.804876-107.127879-84.742033-179.239244-84.742033-69.872371 0-132.549875 31.019481-175.081551 79.945797-12.630668 14.550391-23.503297 30.700209-32.137954 47.967478-15.829524 31.338752-24.622794 66.515926-24.622794 103.930047 0 127.913275 103.930047 231.843322 231.843322 231.843322 74.829266 0 141.503804-35.655058 183.875844-90.818425 30.219255-39.173185 47.967478-87.940888 47.967478-141.024897C975.33872 146.534634 975.178061 141.258467 974.699154 136.141936z"  horiz-adv-x="1039" />

    
    <glyph glyph-name="question" unicode="&#58939;" d="M358.178 465.068c4.98 44.025 21.132 77.99 48.457 101.956 27.311 23.966 62.661 35.936 106.026 35.936 44.663 0 81.361-12.301 110.082-36.903 28.734-24.616 43.089-55.566 43.089-92.851 0-18.649-4.169-36.774-12.519-54.311-8.338-17.575-28.123-40.131-59.355-67.643-23.841-21.257-38.869-38.022-45.037-50.267-6.191-12.246-9.599-34.19-10.248-65.846 0 0-5.093-19.098-27.985-19.098-22.893 0-27.949 19.098-27.949 19.098 0 25.14 0.924 43.514 2.759 55.122 1.847 11.584 5.629 22.918 11.384 33.977 5.742 11.060 13.218 21.47 22.431 31.232 9.225 9.761 22.181 21.894 38.869 36.424 21.257 18.862 34.54 33.652 39.844 44.387 5.318 10.736 7.964 21.645 7.964 32.679 0 22.781-8.988 42.771-26.988 60.015-18 17.232-39.894 25.845-65.694 25.845-52.476 0-84.132-32.086-94.967-96.271 0 0-10.573-25.814-34.627-22.568-24.052 3.234-25.538 29.085-25.538 29.085zM540.984 154.754c0-16.027-12.983-28.984-28.972-28.984-16.003 0-28.985 12.957-28.985 28.984 0 16.015 12.982 28.984 28.985 28.984 15.99 0.001 28.972-12.968 28.972-28.984zM511.987-63.139c-246.553 0-447.146 200.58-447.146 447.146 0 246.553 200.593 447.14 447.146 447.14 246.565 0 447.17-200.586 447.17-447.14 0-246.566-200.606-447.146-447.17-447.146zM511.987 780.018c-218.368 0-396.018-177.65-396.018-396.011 0-218.368 177.65-396.017 396.018-396.017 218.38 0 396.042 177.65 396.042 396.017 0.001 218.361-177.662 396.011-396.042 396.011z"  horiz-adv-x="1024" />

    
    <glyph glyph-name="credentials_icon" unicode="&#58880;" d="M1053.926 754.789h-798.626c-62.983-0.064-114.023-51.105-114.087-114.082v-513.408c0.064-62.983 51.105-114.023 114.083-114.087h798.632c62.983 0.064 114.024 51.105 114.087 114.082v513.408c-0.064 62.983-51.105 114.023-114.082 114.087zM1110.965 127.298c-0.041-31.491-25.558-57.008-57.045-57.05h-798.62c-31.487 0.047-56.998 25.562-57.038 57.045v513.405c0.04 31.491 25.558 57.008 57.045 57.049h798.62c31.487-0.047 56.998-25.562 57.039-57.045zM946.142 361.40999999999997c30.804 26.183 50.735 64.688 50.735 108.152 0 78.633-63.979 142.613-142.613 142.613s-142.601-63.98-142.601-142.613c0-43.464 19.961-81.969 50.766-108.152-63.939-33.32-107.813-100.123-107.813-177.071 0-15.753 12.772-28.524 28.524-28.524 15.753 0 28.524 12.772 28.524 28.524 0 78.633 63.98 142.612 142.612 142.612s142.613-63.979 142.613-142.612c0 0 0 0 0 0 0-15.753 12.772-28.524 28.524-28.524 15.753 0 28.524 12.772 28.524 28.524 0 0 0 0 0 0-0.009 76.948-43.854 143.752-107.795 177.071zM768.702 469.563c0 47.257 38.308 85.563 85.564 85.563s85.563-38.308 85.563-85.563c0-47.257-38.308-85.563-85.563-85.563-47.234 0.052-85.51 38.33-85.563 85.559zM626.087 555.137h-342.264c-15.753 0-28.524-12.772-28.524-28.524s12.772-28.524 28.524-28.524h342.264c15.753 0 28.524 12.772 28.524 28.524s-12.772 28.524-28.524 28.524zM597.563 412.524h-313.74c-15.753 0-28.524-12.772-28.524-28.524s12.772-28.524 28.524-28.524h313.74c15.753 0 28.524 12.772 28.524 28.524s-12.772 28.524-28.524 28.524zM512 269.913h-228.176c-15.753 0-28.524-12.772-28.524-28.524s12.772-28.524 28.524-28.524h228.176c15.753 0 28.524 12.772 28.524 28.524s-12.772 28.524-28.524 28.524z"  horiz-adv-x="1417" />

    
    <glyph glyph-name="renzhengxinxi" unicode="&#58963;" d="M913.92 719.872c0 5.632-1.536 11.264-4.608 16.896-9.216 15.872-29.696 20.992-45.568 11.776-6.144-3.584-154.112-87.04-292.352 50.688C538.624 832 484.864 832 451.584 799.232c-138.752-138.24-285.696-55.296-291.84-51.712-15.872 9.216-36.352 4.096-45.568-11.776-3.072-5.12-4.608-11.264-4.608-16.896v-375.296c0-88.576 57.856-179.2 171.52-269.312 86.016-68.096 180.224-116.224 206.848-129.024 7.68-3.584 15.36-5.632 23.552-5.632s15.872 2.048 23.552 5.632c26.624 13.312 120.832 60.928 206.848 129.024 113.664 90.112 171.52 180.736 171.52 269.312l0.512 376.32zM512 7.68c-53.76 27.136-335.36 175.104-335.36 335.872v325.12c18.944-6.144 43.008-11.776 69.632-14.336 8.704-1.024 17.92-1.024 27.136-1.024 62.976 0 145.92 19.456 225.28 98.816 7.168 7.168 18.432 7.168 25.6 0 91.136-90.624 187.392-102.912 252.416-96.768 27.136 2.56 51.2 8.192 70.144 14.336v-326.144C847.36 182.784 565.76 34.304 512 7.68zM701.952 537.088L464.384 299.52 363.008 401.408c-12.8 12.8-34.304 12.8-47.104 0-12.8-12.8-12.8-34.304 0-47.104l124.928-124.928c6.656-6.656 14.848-9.728 23.552-9.728s16.896 3.072 23.552 9.728l261.12 261.12c12.8 12.8 12.8 34.304 0 47.104-13.312 12.8-34.304 12.8-47.104-0.512z"  horiz-adv-x="1024" />

    
    <glyph glyph-name="caidan_zhichengzhengshu" unicode="&#58969;" d="M725.333333 192a21.333333 21.333333 0 1 0-42.666666 0V768h-170.666667V810.666667h298.666667a85.333333 85.333333 0 0 0 85.333333-85.333334v-682.666666a85.333333 85.333333 0 0 0-85.333333-85.333334H213.333333a85.333333 85.333333 0 0 0-85.333333 85.333334V725.333333a85.333333 85.333333 0 0 0 85.333333 85.333334h85.333334v-42.666667H213.333333a42.666667 42.666667 0 0 1-42.666666-42.666667v-682.666666a42.666667 42.666667 0 0 1 42.666666-42.666667h597.333334a42.666667 42.666667 0 0 1 42.666666 42.666667V725.333333a42.666667 42.666667 0 0 1-42.666666 42.666667h-85.333334v-576zM512 810.666667v-240.384a39.68 39.68 0 0 0-54.229333-36.949334l-38.357334 15.104a42.666667 42.666667 0 0 1-31.701333-0.213333L351.146667 533.333333A38.101333 38.101333 0 0 0 298.666667 568.618667V810.666667h213.333333z m-42.666667-42.666667H341.333333v-192.554667l30.293334 12.288a85.333333 85.333333 0 0 0 55.68 2.986667l7.722666-2.56 34.304-13.525333V768z"  horiz-adv-x="1024" />

    
    <glyph glyph-name="ico" unicode="&#58881;" d="M774.59911111 828.30222222c-2.61688889-0.34133333-5.34755555-0.11377778-7.96444444-0.11377777-43.23555555 0-86.47111111 0.11377778-129.70666667-0.11377778-12.51555555 0-24.91733333-1.59288889-36.864-5.80266667-21.16266667-7.39555555-33.90577778-22.18666667-39.13955555-43.69066667-1.93422222-7.96444445-2.73066667-16.04266667-2.73066667-24.23466666 0-76.45866667-0.11377778-152.80355555 0.11377777-229.26222222 0-15.70133333 1.024-31.40266667 7.05422223-46.42133334 7.85066667-19.456 22.41422222-30.94755555 42.43911111-36.06755556 7.168-1.82044445 14.56355555-2.50311111 21.95911111-2.5031111h248.03555555c9.44355555 0 18.88711111 0.79644445 28.2168889 2.61688888 27.76177778 5.12 45.96622222 23.552 51.08622222 51.2 0.45511111 2.50311111-0.45511111 5.91644445 3.29955555 7.05422222v263.96444445c-0.45511111 0.45511111-0.56888889 1.024-0.56888889 1.70666667-1.70666667 5.46133333-1.93422222 11.15022222-3.75466666 16.72533333-8.07822222 23.89333333-24.68977778 38.00177778-48.69688889 44.14577778-7.28177778 1.82044445-14.56355555 2.73066667-22.18666667 2.38933333-1.47911111-0.11377778-3.41333333-1.13777778-4.43733333 1.024h-101.26222223c-0.45511111-2.95822222-3.072-2.38933333-4.89244444-2.61688889z m112.29866667-46.30755555c4.55111111 0 9.216-1.024 13.53955555-2.38933334 7.85066667-2.50311111 12.17422222-8.64711111 12.17422222-17.18044444 0-85.10577778 0.11377778-170.21155555-0.11377777-255.31733334 0-12.74311111-9.78488889-20.48-24.00711111-20.59377777-43.46311111-0.34133333-86.81244445-0.11377778-130.27555556-0.11377778h-128.56888889c-5.12 0-9.78488889 1.47911111-14.44977777 3.072-9.67111111 3.52711111-10.92266667 11.94666667-11.03644445 20.36622222-0.22755555 42.66666667-0.11377778 85.33333333-0.11377778 128V757.87377778c0 7.39555555 1.70666667 14.22222222 7.85066667 19.34222222 5.23377778 4.32355555 11.71911111 4.89244445 17.74933333 4.89244445 85.78844445 0.11377778 171.57688889 0 257.25155556-0.11377778zM773.68888889 830.00888889c-44.94222222-0.11377778-89.88444445-0.11377778-134.71288889-0.11377778-10.69511111 0-21.16266667-1.13777778-31.51644445-3.52711111-13.19822222-3.072-25.14488889-8.76088889-34.13333333-19.00088889-12.06044445-13.76711111-16.83911111-30.60622222-16.83911111-48.46933333-0.22755555-79.18933333-0.22755555-158.49244445 0-237.68177778 0-10.35377778 0.79644445-20.82133333 3.18577778-30.94755555 3.18577778-13.312 8.64711111-25.6 19.00088889-34.70222223 13.312-11.71911111 29.46844445-17.06666667 47.21777777-17.06666667 84.30933333-0.11377778 168.73244445-0.11377778 253.04177778 0 10.58133333 0 21.27644445 0.56888889 31.51644445 3.41333334 21.61777778 6.144 38.22933333 18.09066667 45.51111111 40.73244444 1.93422222 6.03022222 2.048 12.40177778 4.32355556 18.31822222-3.64088889-1.13777778-2.84444445-4.55111111-3.29955556-7.05422222-5.12-27.76177778-23.32444445-46.08-51.08622222-51.2-9.32977778-1.70666667-18.77333333-2.61688889-28.21688889-2.61688888h-248.03555556c-7.39555555 0-14.79111111 0.68266667-21.95911111 2.5031111-19.91111111 5.12-34.58844445 16.61155555-42.43911111 36.06755556-6.03022222 14.90488889-7.05422222 30.72-7.05422222 46.42133334-0.22755555 76.45866667-0.11377778 152.80355555-0.11377778 229.26222222 0 8.192 0.79644445 16.27022222 2.73066667 24.23466666 5.23377778 21.504 17.97688889 36.29511111 39.13955555 43.69066667 11.94666667 4.20977778 24.34844445 5.68888889 36.864 5.80266667 43.23555555 0.22755555 86.47111111 0.11377778 129.70666667 0.11377778 2.61688889 0 5.34755555-0.22755555 7.96444444 0.11377777 1.93422222 0.22755555 4.43733333-0.22755555 4.77866667 2.73066667-1.36533333-2.38933333-3.64088889-1.024-5.57511111-1.024zM66.67377778 499.712c2.27555555-14.22222222 6.25777778-27.76177778 16.27022222-38.68444445 13.08444445-14.44977778 30.15111111-20.48 48.92444445-20.59377777 85.44711111-0.34133333 170.89422222-0.34133333 256.4551111 0 10.69511111 0 21.504 1.13777778 31.97155556 4.43733333 27.87555555 8.76088889 44.48711111 31.06133333 44.48711111 60.416 0 84.19555555 0 168.27733333 0.11377778 252.47288889 0 7.28177778-0.91022222 14.336-2.73066667 21.39022222-6.59911111 25.48622222-27.87555555 44.48711111-54.04444444 48.128-4.66488889 0.68266667-9.32977778 1.25155555-14.10844444 1.25155556-2.27555555 0-5.12-0.68266667-5.91644445 2.73066667h-101.26222222c-1.47911111-2.38933333-3.75466667-1.024-5.57511111-1.024-46.76266667-0.11377778-93.52533333 0.22755555-140.288-0.22755556-16.83911111-0.11377778-33.22311111-2.95822222-48.01422222-12.17422222-14.22222222-8.87466667-22.528-21.73155555-26.96533334-37.54666667-0.91022222-3.072-0.22755555-6.48533333-2.16177778-9.32977778v-265.10222222c3.29955555-1.024 2.50311111-3.98222222 2.84444445-6.144z m44.94222222 262.82666667c0 9.216 7.05422222 16.61155555 16.49777778 18.54577778 5.00622222 1.024 10.01244445 1.13777778 15.01866667 1.13777777h249.17333333c4.89244445 0 9.55733333-0.91022222 14.10844444-2.27555555 8.53333333-2.73066667 12.288-7.85066667 12.288-16.61155556v-256.56888889c0-9.32977778-4.32355555-15.13244445-13.19822222-18.09066667-4.55111111-1.47911111-9.216-2.38933333-14.10844445-2.27555555-42.32533333 0.11377778-84.53688889 0.11377778-126.86222222 0.11377778-42.89422222 0-85.67466667-0.11377778-128.56888888 0.11377777-7.168 0-14.336 1.024-19.68355556 6.94044445-3.072 3.41333333-4.66488889 7.168-4.66488889 11.49155555-0.11377778 85.67466667-0.11377778 171.57688889 0 257.47911112zM64.85333333 502.89777778c0.11377778-10.12622222 2.95822222-19.68355555 7.28177778-28.55822223 11.83288889-24.34844445 32.88177778-35.27111111 58.70933334-35.49866666 84.76444445-0.68266667 169.52888889-0.22755555 254.17955555-0.22755556 10.58133333 0 21.16266667 0.91022222 31.51644445 3.41333334 30.83377778 7.62311111 49.60711111 30.03733333 49.83466666 61.89511111 0.56888889 83.968 0.22755555 167.936 0.22755556 251.904 0 5.57511111 0 11.15022222-1.024 16.72533333-3.41333333 18.432-12.17422222 33.45066667-27.53422222 44.37333334-12.51555555 8.87466667-26.73777778 12.51555555-41.984 12.97066666-2.61688889 0.11377778-5.57511111-1.36533333-7.85066667 1.024 0.79644445-3.41333333 3.75466667-2.73066667 5.91644444-2.73066666 4.77866667 0 9.44355555-0.68266667 14.10844445-1.25155556 26.16888889-3.64088889 47.44533333-22.64177778 54.04444444-48.128 1.82044445-7.05422222 2.73066667-14.10844445 2.73066667-21.39022222-0.11377778-84.19555555 0-168.27733333-0.11377778-252.47288889 0-29.24088889-16.61155555-51.54133333-44.48711111-60.416-10.46755555-3.29955555-21.27644445-4.43733333-31.97155556-4.43733333-85.44711111-0.22755555-170.89422222-0.34133333-256.45511111 0-18.77333333 0.11377778-35.72622222 6.144-48.92444444 20.59377777-10.01244445 11.03644445-13.99466667 24.46222222-16.27022223 38.68444445-0.34133333 2.16177778 0.45511111 5.23377778-2.95822222 5.91644444 1.47911111-0.11377778 1.024-1.47911111 1.024-2.38933333zM147.68355555-37.774222219999956c2.38933333 0.34133333 4.89244445 0.11377778 7.39555556 0.11377777h234.38222222c9.55733333 0 18.88711111 1.13777778 28.10311112 3.52711112 29.01333333 7.50933333 47.104 30.60622222 47.21777777 60.52977778 0.11377778 28.78577778 0 57.68533333 0 86.4711111v168.39111112c0 36.75022222-24.34844445 63.94311111-60.98488889 67.92533333-12.97066667 1.36533333-26.05511111 1.93422222-39.13955555 2.27555555-39.25333333 0.79644445-78.50666667-0.56888889-117.64622223-1.4791111-37.54666667-0.91022222-75.09333333-0.22755555-112.52622222-0.79644445-13.08444445-0.22755555-25.71377778-3.072-37.20533333-9.216-15.47377778-8.192-24.91733333-21.04888889-29.24088889-38.00177778-0.79644445-3.18577778-0.11377778-7.39555555-4.20977778-9.10222222v-266.24c2.27555555-6.25777778 2.50311111-12.97066667 4.43733334-19.456 6.71288889-23.552 22.07288889-37.888 45.28355555-44.25955555 7.39555555-2.048 15.01866667-2.61688889 22.64177778-2.38933334 1.59288889 0 3.75466667 1.25155555 5.00622222-1.024h2.27555556c0.22755555 2.61688889 2.38933333 2.50311111 4.20977777 2.73066667z m-12.97066666 46.19377777c-13.88088889 0-23.552 7.50933333-23.43822222 23.32444445 0.45511111 83.39911111 0.22755555 166.79822222 0.11377778 250.31111111 0 13.42577778 7.96444445 20.59377778 20.82133333 21.04888889 84.87822222 2.73066667 169.64266667 0.56888889 254.52088889 0.91022222 7.28177778 0 15.24622222 0.45511111 22.30044444-3.41333333 6.144-3.41333333 9.67111111-8.192 9.67111111-15.58755556-0.11377778-42.66666667 0-85.33333333 0-128 0-42.32533333-0.22755555-84.53688889 0.11377778-126.86222222 0.11377778-13.76711111-8.87466667-20.02488889-21.27644445-21.95911111-9.78488889-1.47911111-19.34222222 0-29.01333333 0.11377778-77.93777778 0.22755555-155.87555555 0.11377778-233.81333333 0.11377777zM149.61777778-39.48088888999996c77.14133333 0.11377778 154.39644445 0.11377778 231.53777777 0 10.69511111 0 21.27644445 0.22755555 31.85777778 2.38933334 14.22222222 2.84444445 27.07911111 8.87466667 36.97777778 19.456 11.03644445 11.83288889 16.49777778 26.624 16.49777778 42.78044444 0.22755555 84.53688889 0.11377778 169.18755555 0.11377778 253.72444444 0 7.168-0.45511111 14.10844445-2.27555556 21.04888889-6.03022222 22.64177778-19.68355555 38.34311111-41.75644444 46.99022223-15.13244445 5.91644445-31.06133333 5.68888889-46.64888889 6.03022222-26.28266667 0.56888889-52.56533333 1.024-78.848-0.56888889-21.61777778-1.36533333-43.46311111-0.34133333-65.19466667-1.13777778-31.40266667-1.024-62.91911111-0.34133333-94.43555556-0.22755555-7.28177778 0-14.44977778-0.68266667-21.61777777-2.27555556-20.93511111-4.77866667-36.97777778-15.70133333-46.19377778-35.61244444-2.95822222-6.48533333-3.18577778-13.65333333-5.91644445-20.13866667 4.20977778 1.70666667 3.41333333 5.91644445 4.20977778 9.10222222 4.32355555 16.95288889 13.88088889 29.80977778 29.24088889 38.00177778 11.60533333 6.144 24.12088889 8.98844445 37.20533333 9.216 37.54666667 0.56888889 74.97955555-0.11377778 112.52622223 0.79644444 39.25333333 0.91022222 78.39288889 2.27555555 117.64622222 1.47911111 13.08444445-0.22755555 26.16888889-0.79644445 39.13955555-2.27555555 36.63644445-3.98222222 60.87111111-31.17511111 60.9848889-67.92533333v-168.39111112c0-28.78577778 0.11377778-57.68533333 0-86.47111111-0.22755555-30.03733333-18.20444445-53.02044445-47.21777778-60.52977777-9.216-2.38933333-18.54577778-3.52711111-28.10311112-3.52711112h-234.38222222c-2.50311111 0-4.89244445 0.11377778-7.39555555-0.11377778-1.82044445-0.22755555-3.98222222 0-4.20977778-2.73066666 1.70666667 2.16177778 4.20977778 0.91022222 6.25777778 0.91022222zM92.84266667 817.60711111c14.79111111 9.10222222 31.17511111 12.06044445 48.01422222 12.17422222 46.76266667 0.45511111 93.52533333 0.11377778 140.288 0.22755556 1.82044445 0 4.096-1.36533333 5.57511111 1.024-1.93422222-1.13777778-4.096-0.56888889-6.144-0.56888889-50.97244445-0.34133333-101.94488889 0.91022222-152.91733333-0.68266667-21.504-0.68266667-39.70844445-9.216-52.90666667-26.85155555-7.168-9.55733333-10.35377778-20.48-11.03644445-32.19911111 2.048 2.73066667 1.36533333 6.144 2.16177778 9.32977778 4.55111111 15.81511111 12.74311111 28.672 26.96533334 37.54666666zM885.19111111 830.00888889c7.50933333 0.34133333 14.90488889-0.56888889 22.18666667-2.38933334 23.89333333-6.144 40.61866667-20.25244445 48.69688889-44.14577777 1.82044445-5.46133333 2.048-11.264 3.75466666-16.72533333v0.4551111c0.45511111 31.97155555-27.76177778 60.52977778-59.96088888 62.91911112-6.37155555 0.45511111-12.74311111-0.56888889-19.11466667 1.024 0.91022222-2.38933333 2.95822222-1.25155555 4.43733333-1.13777778zM136.07822222-39.48088888999996c-7.62311111-0.22755555-15.24622222 0.34133333-22.64177777 2.38933334-23.21066667 6.37155555-38.57066667 20.70755555-45.28355556 44.25955555-1.82044445 6.48533333-2.048 13.19822222-4.43733334 19.456 1.25155555-6.03022222 0.91022222-12.288 2.38933334-18.31822222 6.25777778-25.94133333 29.01333333-46.19377778 55.296-47.78666667 6.59911111-0.45511111 13.19822222 0.68266667 19.68355556-0.91022222-1.25155555 2.16177778-3.41333333 1.024-5.00622223 0.91022222zM621.68177778 207.41688889c-13.99466667-0.22755555-23.21066667-9.44355555-23.21066667-22.75555556V-10.808888890000048c0-13.99466667 9.67111111-22.86933333 23.66577778-22.64177778 14.67733333 0.22755555 23.89333333 7.85066667 24.00711111 22.41422222 0.22755555 65.30844445 0.11377778 130.73066667 0 196.03911112 0 13.65333333-9.55733333 22.64177778-24.46222222 22.41422222zM909.53955555 207.18933332999995c-11.264 2.048-26.51022222-5.57511111-26.51022222-20.70755555-0.22755555-33.22311111 0-66.33244445 0-99.55555556v-98.98666667c0-1.82044445-0.11377778-3.86844445 0.45511112-5.5751111 3.75466667-10.69511111 16.384-18.432 26.73777777-15.9288889 12.97066667 3.072 20.36622222 8.192 20.48 24.34844445 0.22755555 63.14666667 0.11377778 126.29333333 0.11377778 189.44-0.11377778 16.384-5.23377778 24.00711111-21.27644445 26.96533333zM804.06755555 139.03644444999998c-2.95822222 10.69511111-14.79111111 19.11466667-25.14488888 17.18044444-14.10844445-2.73066667-22.07288889-7.50933333-22.18666667-23.77955556-0.34133333-46.76266667-0.11377778-93.63911111-0.11377778-140.40177778 0-15.70133333 6.48533333-22.75555555 19.91111111-25.25866666 12.62933333-2.38933333 27.76177778 5.12 27.87555556 21.73155556v72.24888888 73.38666667c0 1.47911111 0 3.29955555-0.34133334 4.89244445zM772.55111111 346.68088889c-9.89866667-2.16177778-15.92888889-11.60533333-15.92888889-22.528V223.57333332999997c0-14.90488889 4.55111111-23.89333333 20.59377778-26.96533333 11.71911111-2.16177778 27.30666667 5.91644445 27.19288889 21.04888889-0.11377778 17.97688889 0 35.95377778 0 54.04444444 0 17.408-0.22755555 34.816 0 52.33777778 0.34133333 21.61777778-16.61155555 25.94133333-31.85777778 22.64177778zM637.15555555 343.72266666999997c-5.57511111 3.86844445-11.49155555 3.75466667-17.52177777 3.75466666-11.94666667 0-21.04888889-8.98844445-21.04888889-20.82133333v-29.58222222c0-10.24-0.11377778-20.48 0-30.72 0.11377778-5.23377778 1.47911111-9.89866667 5.57511111-13.99466667 5.91644445-5.91644445 12.74311111-7.62311111 20.70755555-7.39555556 11.264 0.34133333 21.39022222 10.12622222 21.39022223 21.27644445 0.11377778 20.13866667 0.22755555 40.16355555-0.11377778 60.30222222 0 6.94044445-2.73066667 12.85688889-8.98844445 17.18044445zM928.768 334.05155555c-2.50311111 7.05422222-11.15022222 13.42577778-20.36622222 13.65333334-16.27022222 0.56888889-26.85155555-8.98844445-25.6-25.94133334 0.56888889-7.96444445 0.11377778-15.92888889 0.11377777-23.89333333v-28.44444444c0-1.70666667 0-3.41333333 0.45511112-5.00622223 3.64088889-11.71911111 14.67733333-17.63555555 27.19288888-15.92888888 12.51555555 1.82044445 19.79733333 9.55733333 20.0248889 22.41422222 0.34133333 17.97688889 0.11377778 36.06755555 0.11377777 54.04444444 0 3.29955555-0.91022222 6.25777778-1.93422222 9.10222222zM329.95555555 673.22311111c-2.16177778 8.30577778-8.98844445 14.44977778-17.52177777 15.58755556-1.47911111 0.22755555-3.072 0.45511111-4.55111111 0.45511111-0.68266667 0-1.70666667-0.22755555-1.93422222 0.91022222h-32.768c-0.45511111-0.79644445-1.25155555-0.34133333-1.82044445-0.34133333-15.13244445 0-30.26488889 0.11377778-45.39733333-0.11377778-5.46133333 0-10.80888889-1.024-15.58755556-3.98222222-4.66488889-2.84444445-7.28177778-7.05422222-8.76088889-12.17422222-0.22755555-1.024 0-2.16177778-0.68266667-2.95822223v-85.90222222c1.13777778-0.22755555 0.79644445-1.25155555 0.91022223-1.93422222 0.79644445-4.66488889 2.048-8.98844445 5.23377777-12.51555556 4.20977778-4.66488889 9.78488889-6.59911111 15.81511112-6.71288889 27.648-0.11377778 55.40977778-0.11377778 83.05777778 0 3.52711111 0 6.94044445 0.34133333 10.35377777 1.47911112 8.98844445 2.84444445 14.44977778 10.12622222 14.44977778 19.56977777v81.80622223c0.11377778 2.27555555-0.22755555 4.55111111-0.79644445 6.82666666zM823.18222222 681.984c-2.16177778 8.30577778-8.98844445 14.44977778-17.52177777 15.58755555-1.47911111 0.22755555-3.072 0.45511111-4.55111112 0.45511112-0.68266667 0-1.70666667-0.22755555-1.93422222 0.91022222h-32.768c-0.45511111-0.79644445-1.25155555-0.34133333-1.82044444-0.34133334-15.13244445 0-30.26488889 0.11377778-45.39733334-0.11377777-5.46133333 0-10.80888889-1.024-15.58755555-3.98222223-4.66488889-2.84444445-7.28177778-7.05422222-8.76088889-12.17422222-0.22755555-1.024 0-2.16177778-0.68266667-2.95822222v-85.90222222c1.13777778-0.22755555 0.79644445-1.25155555 0.91022223-1.93422222 0.79644445-4.66488889 2.048-8.98844445 5.23377777-12.51555556 4.20977778-4.66488889 9.78488889-6.59911111 15.81511111-6.71288889 27.648-0.11377778 55.40977778-0.11377778 83.05777778 0 3.52711111 0 6.94044445 0.34133333 10.35377778 1.47911111 8.98844445 2.84444445 14.44977778 10.12622222 14.44977778 19.56977778v81.80622222c0.22755555 2.27555555-0.22755555 4.66488889-0.79644445 6.82666667zM329.27288889 196.72177778000002c-2.16177778 8.30577778-8.98844445 14.44977778-17.52177778 15.58755555-1.47911111 0.22755555-3.072 0.45511111-4.55111111 0.45511112-0.68266667 0-1.70666667-0.22755555-1.93422222 0.91022222h-32.768c-0.45511111-0.79644445-1.25155555-0.34133333-1.82044445-0.34133334-15.13244445 0-30.26488889 0.11377778-45.39733333-0.11377778-5.46133333 0-10.80888889-1.024-15.58755555-3.98222222-4.66488889-2.84444445-7.28177778-7.05422222-8.7608889-12.17422222-0.22755555-1.024 0-2.16177778-0.68266666-2.95822222v-85.90222222c1.13777778-0.22755555 0.79644445-1.25155555 0.91022222-1.93422222 0.79644445-4.66488889 2.048-8.98844445 5.23377778-12.51555556 4.20977778-4.66488889 9.78488889-6.59911111 15.81511111-6.71288889 27.648-0.11377778 55.40977778-0.11377778 83.05777778 0 3.52711111 0 6.94044445 0.34133333 10.35377777 1.47911111 8.98844445 2.84444445 14.44977778 10.12622222 14.44977778 19.56977778v81.80622222c0.11377778 2.27555555-0.22755555 4.55111111-0.79644444 6.82666667z"  horiz-adv-x="1024" />

    
    <glyph glyph-name="kaiguanguan1" unicode="&#58884;" d="M1696.594826 384.199662A512.066554 512.066554 0 0 1 1184.528272 896H512.066554a512.066554 512.066554 0 0 1 0-1024h672.461718a512.066554 512.066554 0 0 1 512.066554 512.199662z m-46.720915-1.064864A464.680099 464.680099 0 1 0 1185.193813 847.548681a464.680099 464.680099 0 0 0 464.680098-464.680099z"  horiz-adv-x="1696" />

    
    <glyph glyph-name="kaiguanguan" unicode="&#59030;" d="M1493.27872 750.63296A494.26432 494.26432 0 0 1 1143.72608 895.3856H494.3872C221.42976 895.3856 0.16384 674.11968 0.16384 401.12128c0-272.95744 221.26592-494.26432 494.26432-494.26432h649.29792a494.26432 494.26432 0 0 1 349.55264 843.776zM500.16256-48.5376a448.55296 448.55296 0 1 0 0 897.14688c247.72608 0 448.55296-200.82688 448.55296-448.59392 0-247.72608-200.82688-448.512-448.512-448.512z"  horiz-adv-x="1638" />

    
    <glyph glyph-name="gongdan" unicode="&#59097;" d="M680.96 736.768v64h-337.92v-64h-201.728v-770.048h741.888V736.768H680.96z m-290.816 17.408h244.224v-75.264h-244.224v75.264z m445.952-740.352h-647.68v675.84h155.136v-57.856h337.92v57.856h155.136v-675.84z m-535.552 498.688h422.4v-47.104h-422.4v47.104z m0-141.312h422.4v-47.104h-422.4v47.104z m315.904-141.824h107.008v-47.104h-107.008v47.104z"  horiz-adv-x="1024" />

    
    <glyph glyph-name="more_icon" unicode="&#58972;" d="M137 509c-69.036 0-125-55.964-125-125s55.964-125 125-125c69.036 0 125 55.964 125 125-0.080 69.004-55.997 124.92-124.992 125zM137 314.56c-38.351 0-69.44 31.089-69.44 69.44 0 38.351 31.089 69.44 69.44 69.44 38.351 0 69.44-31.089 69.44-69.44-0.040-38.335-31.105-69.4-69.436-69.44zM512 509c-69.036 0-125-55.964-125-125s55.964-125 125-125c69.036 0 125 55.964 125 125-0.080 69.004-55.997 124.92-124.992 125zM512 314.56c-38.351 0-69.44 31.089-69.44 69.44 0 38.351 31.089 69.44 69.44 69.44 38.351 0 69.44-31.089 69.44-69.44-0.040-38.335-31.105-69.4-69.436-69.44zM887 509c-69.036 0-125-55.964-125-125s55.964-125 125-125c69.036 0 125 55.964 125 125-0.080 69.004-55.997 124.92-124.992 125zM887 314.56c-38.351 0-69.44 31.089-69.44 69.44 0 38.351 31.089 69.44 69.44 69.44 38.351 0 69.44-31.089 69.44-69.44-0.040-38.335-31.105-69.4-69.436-69.44z"  horiz-adv-x="1024" />

    
    <glyph glyph-name="kaiguan-kai" unicode="&#58888;" d="M512 834.56C263.168 834.56 61.44 632.832 61.44 384s201.728-450.56 450.56-450.56h1024c248.832 0 450.56 201.728 450.56 450.56S1784.832 834.56 1536 834.56H512z m0 61.44h1024c282.76736 0 512-229.23264 512-512S1818.76736-128 1536-128H512C229.23264-128 0 101.23264 0 384S229.23264 896 512 896z m1013.76-819.2C1701.0688 76.8 1843.2 218.9312 1843.2 394.24 1843.2 569.5488 1701.0688 711.68 1525.76 711.68 1350.4512 711.68 1208.32 569.5488 1208.32 394.24 1208.32 218.9312 1350.4512 76.8 1525.76 76.8z"  horiz-adv-x="2048" />

    
    <glyph glyph-name="kaiguan-kai-copy" unicode="&#59416;" d="M1535.99999984-66.55999999999995C1784.83199984-66.56000000999995 1986.55999985 135.168 1986.55999984 384s-201.728 450.56000001-450.56 450.56l-1024 1e-8c-248.83200001 0-450.56000001-201.728-450.56000001-450.56000001S263.16799984-66.55999999999995 511.99999984-66.56000000999995L1535.99999984-66.55999999999995z m0-61.44l-1024 0c-282.76735999 0-512 229.23264-512 512S229.23263984 896 511.99999984 896L1535.99999984 896C1818.76735984 896 2047.99999984 666.76736 2047.99999984 384S1818.76735984-128 1535.99999984-128z m-1013.76000001 819.2C346.93119984 691.2 204.79999984 549.0688 204.79999984 373.76000001 204.79999984 198.45119998999996 346.93119984 56.32000000000005 522.23999984 56.320000009999944 697.54879985 56.32000000000005 839.67999984 198.45119998999996 839.67999983 373.76 839.67999984 549.0688 697.54879985 691.2 522.23999983 691.2z"  horiz-adv-x="2048" />

    
    <glyph glyph-name="xiangshang" unicode="&#59415;" d="M731.04 261.61c0-9.84-4.43-19.57-12.87-25.99-14.34-10.92-34.82-8.15-45.74 6.19l-186.39 244.82c-10.91 14.33-8.16 34.82999999 6.19 45.74 14.34 10.92 34.82 8.15 45.74-6.19l186.4-244.82a32.517 32.517 0 0 0 6.67-19.75zM544.65000001 506.39c0-6.9-2.17-13.84-6.67000001-19.74999999l-186.4-244.82000001c-10.92-14.34-31.4-17.11999999-45.73999999-6.19-14.35 10.91-17.13 31.4-6.19000001 45.74l186.4 244.82c10.92 14.34 31.4 17.11999999 45.74 6.19 8.43-6.42 12.86-16.15 12.86000001-25.99z"  horiz-adv-x="1024" />

    
    <glyph glyph-name="down-copy" unicode="&#59410;" d="M563.2 208L563.2 566.4l-179.2-179.2z"  horiz-adv-x="1024" />

    
    <glyph glyph-name="down-copy1" unicode="&#59411;" d="M460.8 560L460.8 201.60000000000002l179.2 179.2z"  horiz-adv-x="1024" />

    
    <glyph glyph-name="suyaniconchanpinleibufenzuodaohangbufen88" unicode="&#59185;" d="M287.5 331c-21.25 0-38.75-17.5-38.75-38.75 0-21.25 17.5-38.75 38.75-38.75 21.25 0 38.75 17.5 38.75 38.75C326.25 313.5 308.75 331 287.5 331L287.5 331zM287.5 168.5 287.5 168.5c-21.25 0-38.75-17.5-38.75-38.75 0-21.25 17.5-38.75 38.75-38.75 21.25 0 38.75 17.5 38.75 38.75C326.25 151 308.75 168.5 287.5 168.5L287.5 168.5zM287.5 492.25 287.5 492.25c-21.25 0-38.75-17.5-38.75-38.75 0-21.25 17.5-38.75 38.75-38.75 21.25 0 38.75 17.5 38.75 38.75C326.25 476 308.75 492.25 287.5 492.25L287.5 492.25zM910 734.75 910 734.75l-105 0 0 21.25c0 12.5-10 22.5-22.5 22.5l-123.75 0c-6.25 27.5-20 51.25-40 71.25-27.5 27.5-65 45-107.5 45-41.25 0-78.75-17.5-106.25-45-18.75-18.75-33.75-42.5-40-71.25l-122.5 0c-12.5 0-23.75-10-23.75-22.5l0-21.25L115 734.75c-21.25 0-38.75-17.5-38.75-38.75l0-785c0-21.25 17.5-38.75 38.75-38.75l795 0c21.25 0 37.5 17.5 37.5 38.75l0 785C947.5 718.5 931.25 734.75 910 734.75L910 734.75zM450 806c18.75 18.75 33.75 31.25 62.5 31.25 28.75 0 43.75-11.25 62.5-31.25 10-10 7.5-12.5 12.5-27.5L436.25 778.5C442.5 793.5 438.75 794.75 450 806M277.5 721 277.5 721l470 0 0-50L277.5 671M871.25-49 871.25-49 152.5-49 152.5 658.5l66.25 0 0-21.25c0-12.5 10-22.5 23.75-22.5l540 0c12.5 0 22.5 10 22.5 22.5L805 658.5l67.5 0L872.5-49 871.25-49zM735 489.75 735 489.75 402.5 489.75c-12.5 0-22.5-22.5-22.5-35 0-12.5 10-35 22.5-35l332.5 0c12.5 0 23.75 22.5 23.75 35C757.5 467.25 747.5 489.75 735 489.75L735 489.75zM735 164.75 735 164.75 402.5 164.75c-12.5 0-22.5-22.5-22.5-35 0-12.5 10-33.75 22.5-33.75l332.5 0c12.5 0 23.75 21.25 23.75 33.75C757.5 143.5 747.5 164.75 735 164.75L735 164.75zM735 327.25 735 327.25 402.5 327.25c-12.5 0-22.5-21.25-22.5-35 0-12.5 10-35 22.5-35l332.5 0c12.5 0 23.75 21.25 23.75 35C757.5 304.75 747.5 327.25 735 327.25L735 327.25z"  horiz-adv-x="1024" />

    
    <glyph glyph-name="liaotianweixuanzhong" unicode="&#58882;" d="M1068.521739 415.27385C1068.521739 247.452058 952.462924 106.744489 796.378005 69.074904L798.67847 5.363338C802.240036-93.274624 745.801292-119.062016 672.650845-53.116104L548.099174 59.168559 355.802267 59.168559C159.298101 59.168559 0 218.539885 0 415.27385L0 539.894706C0 736.566229 159.391214 896 355.802267 896L712.719471 896C909.223638 896 1068.521739 736.628671 1068.521739 539.894706L1068.521739 415.27385ZM1024 539.894706C1024 712.025702 884.649232 851.478261 712.719471 851.478261L355.802267 851.478261C183.954419 851.478261 44.521739 711.952052 44.521739 539.894706L44.521739 415.27385C44.521739 243.142856 183.872509 103.690298 355.802267 103.690298L548.099174 103.690298C559.110705 103.690298 569.731575 99.609604 577.910236 92.236453L702.461907-20.048206C746.584776-59.825446 756.319196-55.329885 754.185724 3.75682L751.885259 67.468386C751.12147 88.621639 765.356709 107.388193 785.932996 112.354081 924.533818 145.804048 1024 270.560394 1024 415.27385L1024 539.894706ZM734.608696 539.826087C746.903036 539.826087 756.869565 549.792618 756.869565 562.086957 756.869565 574.381295 746.903036 584.347826 734.608696 584.347826L333.913043 584.347826C321.618705 584.347826 311.652174 574.381295 311.652174 562.086957 311.652174 549.792618 321.618705 539.826087 333.913043 539.826087L734.608696 539.826087ZM734.608696 361.73913C746.903036 361.73913 756.869565 371.70566 756.869565 384 756.869565 396.29434 746.903036 406.26087 734.608696 406.26087L333.913043 406.26087C321.618705 406.26087 311.652174 396.29434 311.652174 384 311.652174 371.70566 321.618705 361.73913 333.913043 361.73913L734.608696 361.73913Z"  horiz-adv-x="1069" />

    
    <glyph glyph-name="kaiguanclose" unicode="&#58987;" d="M309.794 76.152h404.239c169.953 0 307.726 137.774 307.726 307.727s-137.774 307.726-307.726 307.726h-404.239c-169.952 0-307.726-137.773-307.726-307.726s137.774-307.727 307.726-307.727zM309.445 662.5c154.23 0 279.268-125.031 279.268-279.268s-125.039-279.268-279.268-279.268c-154.24 0-279.269 125.033-279.269 279.268 0 154.238 125.030 279.268 279.269 279.268z"  horiz-adv-x="1024" />

    
    <glyph glyph-name="down" unicode="&#59409;" d="M688 435.2H329.6l179.2-179.2z"  horiz-adv-x="1024" />

    
    <glyph glyph-name="wancheng" unicode="&#58983;" d="M774.656 121.34400000000005a371.2 371.2 0 1 1-524.8 0 371.2 371.2 0 0 1 524.8 0zM819.2 76.79999999999995a435.2 435.2 0 1 0 0 614.4 435.2 435.2 0 0 0 0-614.4zM694.272 529.408a32.256 32.256 0 1 0 45.056-45.056l-249.856-249.856a37.376 37.376 0 0 0-51.2 0l-142.336 141.312a32.256 32.256 0 1 0 45.056 45.056L460.8 298.496z"  horiz-adv-x="1024" />

    
    <glyph glyph-name="biaogeweibucaidan_" unicode="&#58974;" d="M512 776.252845m-119.747155 0a119.747155 119.747155 0 1 1 239.49431 0 119.747155 119.747155 0 1 1-239.49431 0ZM512 384m-119.747155 0a119.747155 119.747155 0 1 1 239.49431 0 119.747155 119.747155 0 1 1-239.49431 0ZM512-8.252845m-119.747155 0a119.747155 119.747155 0 1 1 239.49431 0 119.747155 119.747155 0 1 1-239.49431 0Z"  horiz-adv-x="1024" />

    
    <glyph glyph-name="shezhi" unicode="&#58941;" d="M723.6-30.7H301.9c-17.5 0-33.7 9.4-42.4 24.5L48.6 359c-8.7 15.1-8.7 33.9 0 49l210.9 365.2c8.7 15.1 25 24.5 42.4 24.5h421.7c17.5 0 33.7-9.4 42.4-24.5L976.9 408c8.7-15.1 8.7-33.9 0-49L766-6.2c-8.7-15.1-25-24.5-42.4-24.5z m-410.7 68.2h399.6l199.8 346.1-199.8 346H312.9l-199.8-346 199.8-346.1zM512.7 232.5c-83.3 0-151.1 67.8-151.1 151.1s67.8 151.1 151.1 151.1 151.1-67.8 151.1-151.1c0-83.4-67.8-151.1-151.1-151.1z m0 234c-45.7 0-82.9-37.2-82.9-82.9s37.2-82.9 82.9-82.9 82.9 37.2 82.9 82.9-37.1 82.9-82.9 82.9z"  horiz-adv-x="1024" />

    
    <glyph glyph-name="dangqianhuihua" unicode="&#58979;" d="M154.628571-97.714286c-7.542857 0-14.742857 3.771429-18.971428 10.171429-5.142857 7.657143-5.142857 17.6-0.114286 25.257143l58.514286 89.028571c9.371429 14.514286 5.142857 34.4-9.485714 45.142857-10.171429 7.542857-12.342857 21.828571-4.8 32 7.542857 10.171429 21.828571 12.342857 32 4.8 34.057143-25.028571 43.2-72 20.685714-106.742857 0 0-0.114286-0.114286-0.114286-0.228571l-29.028571-44.114286 165.371428 31.2c0.114286 0 0.228571 0 0.342857 0.114286L508.228571 12.571429c1.257143 0.228571 2.514286 0.342857 3.885715 0.342857 63.085714 0 124.342857 10.857143 181.942857 32.114285 55.428571 20.571429 105.257143 49.942857 147.885714 87.2 87.085714 76.228571 135.085714 177.371429 135.085714 284.685715s-48 208.457143-135.085714 284.685714c-42.742857 37.371429-92.457143 66.742857-147.885714 87.2-57.6 21.371429-118.857143 32.114286-181.942857 32.114286-63.085714 0-124.342857-10.857143-181.942857-32.114286-55.428571-20.571429-105.257143-49.942857-147.885715-87.2C95.085714 625.371429 47.085714 524.228571 47.085714 416.914286c0-47.885714 9.6-94.857143 28.457143-139.428572 18.285714-43.2 44.914286-83.2 78.971429-118.742857 8.685714-9.142857 8.457143-23.542857-0.685715-32.342857-9.142857-8.685714-23.542857-8.457143-32.342857 0.685714-37.942857 39.657143-67.542857 84.228571-88 132.571429-21.257143 50.285714-32.114286 103.085714-32.114285 157.257143 0 61.142857 13.714286 120.342857 40.571428 176.114285 25.942857 53.6 62.971429 101.714286 110.057143 142.971429 46.857143 41.028571 101.485714 73.257143 162.171429 95.771429C376.914286 854.971429 443.428571 866.742857 512 866.742857s135.085714-11.771429 197.828571-34.971428C770.514286 809.257143 825.142857 777.028571 872 736c47.085714-41.257143 84.114286-89.371429 110.057143-142.971429 26.971429-55.771429 40.571429-114.971429 40.571428-176.114285s-13.714286-120.342857-40.571428-176.114286c-25.942857-53.6-62.971429-101.714286-110.057143-142.971429-46.857143-41.028571-101.485714-73.257143-162.171429-95.771428-62.057143-22.971429-128-34.742857-195.885714-34.971429l-137.142857-23.428571-218.057143-41.142857c-1.371429-0.114286-2.742857-0.228571-4.114286-0.228572z m58.514286 112zM276.228571 386.742857m-45.714285 0a45.714286 45.714286 0 1 1 91.428571 0 45.714286 45.714286 0 1 1-91.428571 0ZM513.6 386.742857m-45.714286 0a45.714286 45.714286 0 1 1 91.428572 0 45.714286 45.714286 0 1 1-91.428572 0ZM750.971429 384.914286m-45.714286 0a45.714286 45.714286 0 1 1 91.428571 0 45.714286 45.714286 0 1 1-91.428571 0Z"  horiz-adv-x="1024" />

    
    <glyph glyph-name="danseyuandian" unicode="&#58922;" d="M512 384m-263 0a263 263 0 1 1 526 0 263 263 0 1 1-526 0Z"  horiz-adv-x="1024" />

    
    <glyph glyph-name="xiangyou" unicode="&#58897;" d="M389.61 164.96c-9.84 0-19.57 4.43-25.99 12.87-10.92 14.34-8.15 34.82 6.19 45.74l244.82 186.39c14.33 10.91 34.83 8.16 45.74-6.19 10.92-14.34 8.15-34.82-6.19-45.74l-244.82-186.4a32.517 32.517 0 0 0-19.75-6.67zM634.39 351.35c-6.9 0-13.84 2.17-19.75 6.67l-244.82 186.4c-14.34 10.92-17.12 31.4-6.19 45.74 10.91 14.35 31.4 17.13 45.74 6.19l244.82-186.4c14.34-10.92 17.12-31.4 6.19-45.74-6.42-8.43-16.15-12.86-25.99-12.86z"  horiz-adv-x="1024" />

    
    <glyph glyph-name="wenzhen" unicode="&#58915;" d="M789.5 20h-553C161.2 20 100 81.20000000000005 100 156.5v391c0 75.3 61.2 136.5 136.5 136.5h553c75.3 0 136.5-61.2 136.5-136.5v-391c0-75.3-61.2-136.5-136.5-136.5z m-553 604c-42.2 0-76.5-34.3-76.5-76.5v-391c0-42.2 34.3-76.5 76.5-76.5h553c42.2 0 76.5 34.3 76.5 76.5v391c0 42.2-34.3 76.5-76.5 76.5h-553zM640 322H384c-16.6 0-30 13.4-30 30s13.4 30 30 30h256c16.6 0 30-13.4 30-30s-13.4-30-30-30zM512 194c-16.6 0-30 13.4-30 30V480c0 16.6 13.4 30 30 30s30-13.4 30-30v-256c0-16.6-13.4-30-30-30zM342 624c-16.6 0-30 13.4-30 30V768c0 16.6 13.4 30 30 30s30-13.4 30-30v-114c0-16.6-13.4-30-30-30zM683 624c-16.6 0-30 13.4-30 30V768c0 16.6 13.4 30 30 30s30-13.4 30-30v-114c0-16.6-13.4-30-30-30z"  horiz-adv-x="1024" />

    
    <glyph glyph-name="wannengbiaodan" unicode="&#59075;" d="M773.485714-74.474057h-522.971428c-46.782171 0-84.845714 35.796114-84.845715 79.813486V623.7184c0 44.002743 38.063543 79.813486 84.845715 79.813486h26.8288v-52.662857h-26.8288c-17.744457 0-32.182857-12.1856-32.182857-27.150629v-618.364343c0-14.965029 14.4384-27.150629 32.182857-27.150628h522.971428c17.744457 0 32.168229 12.1856 32.168229 27.150628V623.7184c0 14.965029-14.423771 27.150629-32.168229 27.150629h-32.914285v52.662857h32.914285c46.767543 0 84.831086-35.796114 84.831086-79.813486v-618.364343c0-44.032-38.063543-79.828114-84.831086-79.828114zM303.235657 489.603657H720.749714v-52.662857H303.235657zM334.101943 701.279086H689.883429v-52.662857H334.101943zM303.235657 339.192686H720.749714v-52.662857H303.235657zM303.235657 188.767086H720.749714v-52.662857H303.235657zM655.023543 699.421257h-52.662857a90.477714 90.477714 0 0 1-90.375315 90.389943 90.492343 90.492343 0 0 1-90.389942-90.389943h-52.662858c0 78.877257 64.175543 143.0528 143.0528 143.0528s143.038171-64.175543 143.038172-143.0528z"  horiz-adv-x="1024" />

    
    <glyph glyph-name="icon-" unicode="&#58956;" d="M513.137778 769.137778c51.863704 0 102.115556-10.145185 149.428148-30.151111 45.700741-19.342222 86.755556-47.028148 122.026667-82.29926 35.271111-35.271111 62.957037-76.325926 82.299259-122.026666 20.005926-47.312593 30.151111-97.564444 30.151111-149.428148s-10.145185-102.115556-30.151111-149.428149c-19.342222-45.700741-47.028148-86.755556-82.299259-122.026666-35.271111-35.271111-76.325926-62.957037-122.026667-82.299259-47.217778-20.100741-97.564444-30.340741-149.428148-30.340741S411.022222 11.377778 363.70963 31.383704c-45.700741 19.342222-86.755556 47.028148-122.026667 82.299259-35.271111 35.271111-62.957037 76.325926-82.299259 122.026667-20.005926 47.312593-30.151111 97.564444-30.151111 149.428148S139.377778 487.348148 159.383704 534.660741c19.342222 45.700741 47.028148 86.755556 82.299259 122.026666 35.271111 35.271111 76.325926 62.957037 122.026667 82.29926 47.312593 20.005926 97.659259 30.151111 149.428148 30.151111m0 42.666666c-235.614815 0-426.666667-191.051852-426.666667-426.666666s191.051852-426.666667 426.666667-426.666667 426.666667 191.051852 426.666666 426.666667-190.957037 426.666667-426.666666 426.666666zM712.343704 363.804444h-398.222223c-11.757037 0-21.333333 9.576296-21.333333 21.333334s9.576296 21.333333 21.333333 21.333333h398.222223c11.757037 0 21.333333-9.576296 21.333333-21.333333s-9.576296-21.333333-21.333333-21.333334zM513.232593 164.693333c-11.757037 0-21.333333 9.576296-21.333334 21.333334v398.222222c0 11.757037 9.576296 21.333333 21.333334 21.333333s21.333333-9.576296 21.333333-21.333333v-398.222222c0-11.757037-9.576296-21.333333-21.333333-21.333334z"  horiz-adv-x="1024" />

    
    <glyph glyph-name="guangbo" unicode="&#58912;" d="M533.138286 896c28.379429 0 61.659429-19.456 61.659428-74.093714v-875.154286C594.651429-108.397714 561.590857-128 533.211429-128c-25.965714 0-54.710857 15.652571-85.504 46.372571L221.403429 145.554286H118.930286A119.222857 119.222857 0 0 0 0 264.777143V503.734857c0 65.828571 53.394286 119.222857 118.930286 119.222857h102.473143L447.707429 850.066286C478.134857 880.493714 506.953143 896 533.211429 896z m-17.773715-91.574857a163.474286 163.474286 0 0 1-11.556571-10.678857L265.874286 555.154286a39.497143 39.497143 0 0 0-28.086857-11.702857H118.930286a39.789714 39.789714 0 0 1-39.643429-39.716572v-238.738286c0-21.942857 17.846857-39.716571 39.643429-39.716571H237.714286a39.497143 39.497143 0 0 0 28.086857-11.702857l238.006857-238.811429c4.242286-4.169143 8.045714-7.68 11.483429-10.678857V804.425143z m382.390858-27.062857c85.504-97.865143 172.763429-220.964571 172.763428-392.996572 0-172.032-87.405714-295.204571-172.763428-392.923428a39.350857 39.350857 0 0 0-55.954286-3.876572 39.936 39.936 0 0 0-3.657143 56.100572c79.579429 91.062857 153.161143 195.218286 153.161143 340.553143 0 145.261714-73.654857 249.563429-153.161143 340.48a39.862857 39.862857 0 0 0 3.657143 56.246857 39.497143 39.497143 0 0 0 55.954286-3.657143z m-132.388572-138.313143c6.436571-9.142857 13.165714-18.066286 19.748572-26.770286 42.788571-56.978286 87.259429-115.712 87.259428-228.205714 0-108.909714-48.859429-175.323429-91.867428-234.057143l-15.213715-20.845714a40.009143 40.009143 0 0 0-55.442285-8.996572 40.009143 40.009143 0 0 0-9.069715 55.515429l15.652572 21.504c41.106286 55.881143 76.507429 104.009143 76.507428 186.953143 0 85.723429-31.378286 127.414857-71.094857 180.150857a1084.708571 1084.708571 0 0 0-20.992 28.379428 39.789714 39.789714 0 0 0 9.142857 55.515429 39.497143 39.497143 0 0 0 55.296-9.142857z"  horiz-adv-x="1097" />

    
    <glyph glyph-name="down-copy2" unicode="&#59412;" d="M336 332.79999999999995L694.4 332.79999999999995l-179.2 179.2z"  horiz-adv-x="1024" />

    
    <glyph glyph-name="anquanjisu" unicode="&#58894;" d="M923.178667 657.536l-368.469334 161.706667L186.368 658.346667l-0.213333-212.650667c0-139.690667 50.261333-260.266667 148.224-354.816 60.117333-58.026667 129.493333-98.645333 196.821333-125.141333l23.466667-9.258667 23.466666 9.216c67.285333 26.538667 136.746667 67.157333 196.821334 125.098667 98.005333 94.549333 148.224 215.125333 148.224 354.858666V657.536zM554.666667 749.397333l304.512-133.632v-170.112c0-122.496-43.306667-226.432-128.64-308.778666-51.157333-49.322667-107.904-81.194667-147.882667-99.626667l-15.061333-6.698667-12.928-5.290666-12.928 5.290666-15.061334 6.698667c-39.978667 18.432-96.682667 50.346667-147.84 99.669333-81.834667 78.976-125.013333 177.664-128.426666 293.546667l-0.256 15.189333 0.170666 170.794667L554.666667 749.397333zM504.064 202.922667a29.824 29.824 0 0 0-26.752 16.981333 31.061333 31.061333 0 0 0 2.986667 32l78.421333 105.301333-74.666667 39.68a30.421333 30.421333 0 0 0-15.189333 19.626667 31.061333 31.061333 0 0 0 4.266667 24.576l93.226666 140.544c5.973333 9.045333 16.213333 14.08 26.88 13.312a29.866667 29.866667 0 0 0 24.746667-17.066667c4.650667-9.813333 3.84-21.461333-2.133333-30.464l-74.453334-112.213333 76.373334-40.533333a30.421333 30.421333 0 0 0 15.36-20.48 31.018667 31.018667 0 0 0-5.376-25.130667l-99.882667-134.101333a29.610667 29.610667 0 0 0-23.808-12.032z"  horiz-adv-x="1066" />

    
    <glyph glyph-name="shezhi-copy" unicode="&#59417;" d="M926.7 595.6L926.7 173.89999999999998c0-17.5-9.4-33.7-24.5-42.4L537-79.39999999999998c-15.1-8.7-33.9-8.7-49 0l-365.2 210.9c-15.1 8.7-24.5 25-24.5 42.4l0 421.7c0 17.5 9.4 33.7 24.5 42.4L488 848.9c15.1 8.7 33.9 8.7 49-1e-8L902.2 638c15.1-8.7 24.5-25 24.5-42.4z m-68.19999999-410.7l-1e-8 399.6-346.1 199.8-346-199.8L166.4 184.89999999999998l346-199.8 346.10000001 199.8zM663.5 384.7c0-83.3-67.8-151.1-151.1-151.1s-151.1 67.8-151.1 151.1 67.8 151.1 151.1 151.1c83.4 0 151.1-67.8 151.1-151.1z m-234 0c0-45.7 37.2-82.9 82.9-82.9s82.9 37.2 82.9 82.9-37.2 82.9-82.9 82.9-82.9-37.1-82.9-82.9z"  horiz-adv-x="1024" />

    
    <glyph glyph-name="xiangxia" unicode="&#59413;" d="M292.96 506.39c0 9.84 4.43 19.57 12.87 25.99 14.34 10.92 34.82 8.15 45.74-6.19l186.39-244.82c10.91-14.33 8.16-34.82999999-6.19-45.74-14.34-10.92-34.82-8.15-45.74 6.19l-186.4 244.82a32.517 32.517 0 0 0-6.67 19.75zM479.34999999 261.61c0 6.9 2.17 13.84 6.67000001 19.74999999l186.4 244.82000001c10.92 14.34 31.4 17.11999999 45.73999999 6.19 14.35-10.91 17.13-31.4 6.19000001-45.74l-186.4-244.82c-10.92-14.34-31.4-17.11999999-45.74-6.19-8.43 6.42-12.86 16.15-12.86000001 25.99z"  horiz-adv-x="1024" />

    
    <glyph glyph-name="xiangzuo" unicode="&#59414;" d="M634.39 603.04c9.84 0 19.57-4.43 25.99-12.87 10.92-14.34 8.15-34.82-6.19-45.74l-244.82-186.39c-14.33-10.91-34.82999999-8.16-45.74 6.19-10.92 14.34-8.15 34.82 6.19 45.74l244.82 186.4a32.517 32.517 0 0 0 19.75 6.67zM389.61 416.65000001c6.9 0 13.84-2.17 19.74999999-6.67000001l244.82000001-186.4c14.34-10.92 17.11999999-31.4 6.19-45.73999999-10.91-14.35-31.4-17.13-45.74-6.19000001l-244.82 186.4c-14.34 10.92-17.11999999 31.4-6.19 45.74 6.42 8.43 16.15 12.86 25.99 12.86000001z"  horiz-adv-x="1024" />

    


  </font>
</defs>
</svg>
